Direct Download Lifeboats Series: Fab Mixing Will Knox in Cubase (2016)

Hits: 369

The Lifeboats series is going to be a unique chance to see how the pureMix mentors each approach the same song with their own unique vision for the mix. See how Grammy winners Fab Dupont, Andrew Scheps and Mick Guzauski shape Will Knox's song with their own tastes and creativity. In this first installment of the Lifeboats series, Fab Dupont challenges himself to leave his familiar home of Pro Tools for a mixing adventure in Cubase 8 using only the built in plugins and Cubase channel strip.

In this 2 hour long mixing tutorial, you'll learn:
- How Fab's mixing workflow translates from one DAW to another
- How to set up your session and markers for easy navigation throughout the mixing session
- Mixing live drums recorded with tons of microphone options
- Creating a bass tone using the VST Amp Simulator that sounds better than the real amp.
- Finding the perfect balance of space and support around the vocal using reverb and delay
- Combining and EQing multiple mics on the guitar amp to craft a great tone that cuts through the mix
- Adding creative effects to synths to create a vibe that compliments the song
- Balancing all of the track together and automating problem areas.
- Fab walks you through his entire mixing process from the raw tracks all the way to the mix bus processing. Watch how a Grammy winning mix engineer works piece by piece and explains not only what he's doing but why he makes each decision along the way.

MediaInfo:
General
Complete name : Part 1.mp4
Format : MPEG-4
Format profile : Base Media
Codec ID : isom
File size : 696 MiB
Duration : 1h 3mn
Overall bit rate mode : Variable
Overall bit rate : 1 534 Kbps
Writing application : Lavf56.25.101
Video
ID : 1
Format : AVC
Format/Info : Advanced Video Codec
Format profile :
Format settings, CABAC : Yes
Format settings, ReFrames : 8 frames
Codec ID : avc1
Codec ID/Info : Advanced Video Coding
Duration : 1h 3mn
Bit rate : 1 250 Kbps
Width : 1 920 pixels
Height : 1 080 pixels
Display aspect ratio : 16:9
Frame rate mode : Variable
Frame rate : 23.976 fps
Minimum frame rate : 11.946 fps
Maximum frame rate : 90 000.000 fps
Color space : YUV
Chroma subsampling : 4:2:0
Bit depth : 8 bits
Scan type : Progressive
Bits/(Pixel*Frame) : 0.025
Stream size : 562 MiB (81%)
Writing library : x264 core 129
Encoding settings : cabac=1 / ref=8 / deblock=1:0:0 / analyse=0x3:0x133 / me=umh / subme=9 / psy=1 / psy_rd=1.00:0.00 / mixed_ref=1 / me_range=16 / chroma_me=1 / trellis=2 / 8x8dct=1 / cqm=0 / deadzone=21,11 / fast_pskip=1 / chroma_qp_offset=-2 / threads=12 / lookahead_threads=2 / sliced_threads=0 / nr=0 / decimate=1 / interlaced=0 / bluray_compat=0 / constrained_intra=0 / bframes=3 / b_pyramid=2 / b_adapt=2 / b_bias=0 / direct=3 / weightb=1 / open_gop=0 / weightp=2 / keyint=24 / keyint_min=2 / scenecut=0 / intra_refresh=0 / rc_lookahead=24 / rc=2pass / mbtree=1 / bitrate=1250 / ratetol=60.0 / qcomp=0.60 / qpmin=0 / qpmax=69 / qpstep=4 / cplxblur=20.0 / qblur=0.5 / ip_ratio=1.40 / aq=1:1.00
Audio
ID : 2
Format : AAC
Format/Info : Advanced Audio Codec
Format profile : LC
Codec ID : 40
Duration : 1h 3mn
Bit rate mode : Variable
Bit rate : 288 Kbps
Channel(s) : 2 channels
Channel positions : Front: L R
Sampling rate : 44.1 KHz
Compression mode : Lossy
Stream size : 131 MiB (19%)

Screenshots
PLEASE SUPPORT ME BY CLICK ONE OF MY LINKS IF YOU WANT BUYING OR EXTENDING YOUR ACCOUNT
Rapidgator.net
nitroflare_com:
Uploaded.net




Related Posts
19 hours

 Date: 12/13/17 02:36   in : Tutorials 

Basic Statistics and Data Mining for Data ScienceMP4 | Video: AVC 1280x720 | Audio: AAC 44KHz 2ch | Duration: 3 Hours | 1.31 GBGenre: eLearning | Language: English Data science is an ever-evolving field, with exponentially growing popularity. Data science includes techniques and theories extr...

 

19 hours

 Date: 12/13/17 02:36   in : Tutorials 

Gold Medal Bodies: Parallette Training Level 1 And Level 2 2.51 GBParallettes One is our beginner/intermediate introduction to pressing strength and inverted skills. Itll build muscle and control through your entire body and make you feel absolutely solid. Gold Medal Bodies: Parallette Traini...

 

19 hours

 Date: 12/13/17 02:36   in : Tutorials 

PhoneGap for BeginnersMP4 | Video: AVC 1280x720 | Audio: AAC 44KHz 2ch | Duration: 2 Hours | 759 MBGenre: eLearning | Language: EnglishCreating seamless, effective and beautiful mobile apps is not easy, and making them run on various different platforms is even less easy. You'll need to be fluent i...

 

19 hours

 Date: 12/13/17 02:36   in : Tutorials 

Get Hired: Launch your Stand-Out Resume & LinkedIn ProfileMP4 | Video: AVC 1280x720 | Audio: AAC 44KHz 2ch | Duration: 38M | Lec: 10 | 208 MBGenre: eLearning | Language: English Learn simple steps to REALLY stand out in the job market with your resume and LinkedIn profile .?Learn how to REALLY stan...

 

19 hours

 Date: 12/13/17 02:36   in : Tutorials 

Building Solutions Using Excel and Access 2016 TogetherMP4 | Video: 720p | Duration: 2:19:07 | English | Subtitles: VTT | 331.3 MB By combining the power of Microsoft Excel and Access 2016, you can build better end-user solutions and greatly enhance your own personal productivity. In this co...

 

19 hours

 Date: 12/13/17 02:36   in : Tutorials 

Windows 10: Getting Started with UWPMP4 | Video: AVC 1280x720 | Audio: AAC 44KHz 2ch | Duration: 28M | 699 MBGenre: eLearning | Language: EnglishIf you're a developer who wants to explore the Universal Windows Platform (UWP) and Windows 10 device families, don't miss this Windows 10 developer train...

 

19 hours

 Date: 12/13/17 02:36   in : Tutorials 

Cert Prep: MCSA Office 365MP4 | Video: 720p | Duration: 32:00 | English | Subtitles: VTT | 128.0 MB The job market for IT professionals has grown increasingly more competitive, with highly- skilled individuals often jostling for the same positions. Earning a technical certification can hel...

 

19 hours

 Date: 12/13/17 02:36   in : Tutorials 

Concert Photography Masterclass for BeginnersMP4 | Video: AVC 1280x720 | Audio: AAC 44KHz 2ch | Duration: 2 Hours | 345 MBGenre: eLearning | Language: EnglishYour Step-By-Step Course Into The World Of Concert Photography - it?s hard to get started without any professional photography training - It?...

 

19 hours

 Date: 12/13/17 02:36   in : Tutorials 

API (REST/SOAP) Testing using JMeter with Real ExamplesMP4 | Video: AVC 1280x720 | Audio: AAC 44KHz 2ch | Duration: 7.5 Hours | Lec: 56 | 1.07 GBGenre: eLearning | Language: English Join Popular course to Automation Testing of REST / SOAP API(Web Services) using JMeterApache JMeter is an open...

 

19 hours

 Date: 12/13/17 02:36   in : Tutorials 

Start Making Comics With Manga Studio 5 Clip Studio PaintMP4 | Video: AVC 1280x720 | Audio: AAC 44KHz 2ch | Duration: 6.5 Hours | Lec: 77 | 1.57 GBGenre: eLearning | Language: English Start Making Comics With Manga Studio 5 Clip Studio PaintMP4 | Video: AVC 1280x720 | Audio: AAC 44KHz 2ch | D...